MasterClass. com – Reba McEntire Teaches Country Music [Tutorial, ENG]

_

MasterClass. com – Reba McEntire Teaches Country Music [Tutorial, ENG]

You know her songs, her Oklahoma charm. Now you can get lessons straight from Riba in her first online course. Join her in the studio, see how she records a song that no one has ever heard, how she creates a new acoustic version of the song “Fancy”, how she makes out her hits. You will also see her emotional performance on stage Grand Ole Opry.

Course content:

01.Introduction
Reba warmly welcomes you. You can take it away from her class.
02.Selecting a Song
Melody, lyrics, relatability. Learn how to make a song, using examples from “Fancy”, Merle Haggard’s “Carolyn”, and others.
03.Singing
The purse of singing. It has been shown that there has been a lot of effort.
04.Recording a Song
Welcome to the recording studio! From his own unique recording process.
05.Recording a Song Case Study: “There’s No U in Oklahoma”
See the Master in action. Watch as Reba Records in the studio, working with her band, producers, and engineers.
06.Case Study: “Fancy” Goes Acoustic
Learn the backstory of the most infamous songs, “Fancy”. Then, you’re listening to a record version of the song.
07.Performance Techniques: Learning to Perform Live
It is mentally and physically there. You can learn from other performers.
08.Performance Techniques: Engaging an Audience
Anyone in country music knows Reba is a mesmerizing performer. Learn more about how you want to play and what you want to do.
09.Performance Case Study: “Just Like Them Horses”
Reba performs “Just Like Them Horses” exclusively for her MasterClass. If you are a girl, you’ll be able to pull back.
10.Student Workshop: Trevor
Improve your eye contact during your performance.
11.Student Workshop: Cheyenne
Back to top
12.Student Workshop: Emily
Case Study: Sometimes being different in the country.
13.Student Workshop: Jimmy
Case study:
14.Country Music Overview
Music industry in the world. It is a woman in the country music.
15.Building a Career
She wants to make a long lasting career in the music business. From networking, managing your finances, to work ethic, Reba breaks down.
16.Building the Right Team
When it comes to the music business, you need the right people around you. Learn how to build your team, choose your manager, and kick off your singing career.
17.Creating a Visual Brand
Reba’s look has changed throughout her career. It’s important to have a visual brand.
18.Values ​​as a Musician
It’s not just what you do. Learn how to have a graceful 40-year career.
19.Reba’s Journey
She has achieved her goal.
20.Closing Thoughts
Reba closes her masterclass
21.Bonus Chapter: “Does He Love You” Performance
Reba performs her Grammy-winning hit “Does He Love You” exclusively for her MasterClass.


Quality : WEBRip
Format : MP4
Video codec : H.264
Audio Codec : AAC
Video : AVC, 1280×720, 16: 9, 1520 kb / s, 23.976fps
Audio : AAC, 128 kb / s, 44100Hz, 2 channels

MediaInfo

General
Complete name: MasterClass – Reba McEntire Teaches Country Music 06.Case Study – Fancy Goes Acoustic.mp4
Format: MPEG-4
Format profile: Base Media
Codec ID: isom (isom / iso2 / avc1 / mp41)
File size: 235 MiB
Duration: 19 min 50 s
Overall bit rate: 1 655 kb / s
Writing application: Lavf57.41.100
Video
ID: 1
Format: AVC
Format / Info: Advanced Video Codec
Format profile: [email protected]
Format settings, CABAC: Yes
Format settings, ReFrames: 4 frames
Codec ID: avc1
Codec ID / Info: Advanced Video Coding
Duration: 19 min 50 s
Bit rate: 1 521 kb / s
Width: 1 280 pixels
Height: 720 pixels
Display aspect ratio: 16: 9
Frame rate mode: Constant
Frame rate: 23.976 (23976/1000) FPS
Color space: YUV
Chroma subsampling: 4: 2: 0
Bit depth: 8 bits
Scan type: Progressive
Bits / (Pixel * Frame): 0.069
Stream size: 216 MiB (92%)
Writing library: x264 core 148 r2721 72d53ab
Encoding settings: cabac = 1 / ref = 4 / deblock = 1: 0: 0 / analyze = 0x3: 0x113 / me = umh / subme = 8 / psy = 1 / psy_rd = 1.00: 0.00 / mixed_ref = 1 / me_range = 16 / chroma_me = 1 / trellis = 1 / 8x8dct = 1 / cqm = 0 / deadzone = 21.11 / fast_pskip = 1 / chroma_qp_offset = -2 / threads = 12 / lookahead_threads = 2 / sliced_threads = 0 / nr = 0 / decimate = 1 / interlaced = 0 / bluray_compat = 0 / constrained_intra = 0 / bframes = 3 / b_pyramid = 2 / b_adapt = 2 / b_bias = 0 / direct = 3 / weightb = 1 / open_gop = 0 / weightp = 2 / keyint = 71 / keyint_min = 36 / scenecut = 0 / intra_refresh = 0 / rc_lookahead = 40 / rc = crf / mbtree = 1 / crf = 23.0 / qcomp = 0.60 / qpmin = 10 / qpmax = 51 / qpstep = 4 / vbv_maxrate = 3750 / vbv_bufsize = 3750 / crf_max = 0.0 / nal_hrd = none / filler = 0 / ip_ratio = 1.41 / aq = 1: 1.00
Language: English
Audio
ID: 2
Format: AAC
Format / Info: Advanced Audio Codec
Format profile: LC
Codec ID: 40
Duration: 19 min 50 s
Duration_LastFrame: -10 ms
Bit rate mode: Constant
Bit rate: 128 kb / s
Channel (s): 2 channels
Channel positions: Front: LR
Sampling rate: 44.1 kHz
Frame rate: 43.066 FPS (1024 spf)
Compression mode: Lossy
Stream size: 18.2 MiB (8%)
Language: English
Default: Yes
Alternate group: 1


Posted by : MasterClass.com
Country : United States
Theme : music, singing
Type of handing out material : Video Tutorial
Year of release : 2017
Language : English
Translation : None

Share

#